Kατηγορίες

Traffic at a Glance

Pageviews 80.387

Days in Range 30

Average Daily Pageviews 2.680

From Search Results 7.124

Unique IPs 8.148

Last 30 minutes 17

Today 315

Yesterday 3.240

THE COMMUTER / Ο ΕΠΙΒAΤΗΣ (2018) BRRip XviD AC3-XVID {ΕΝΣΩΜ.ΥΠΟΤ}

Είδος Ταινίας: Δράσης, Εγκλήματος, Δράμα
Ελληνική Πρεμιέρα: 11 Ιανουαρίου 2018
Σκηνοθέτης: Jaume Collet-Serra
Σενάριο: Byron Willinger (story by), Philip de Blasi (story by)
Ηθοποιοί: Liam Neeson, Vera Farmiga, Patrick Wilson
Υπότιτλοι: Eλληνικοί, Ενσωματωμένοι
Mετάφραση: TomTsan
iMDB: http://www.imdb.com/title/tt4547194/

Υπόθεση

Ο Μάικλ είναι ένας ασφαλιστής που αυτή τη στιγμή βρίσκεται στην καθημερινή του διαδρομή με τη συγκοινωνία για το σπίτι του. Αλλά αυτή τη φορά δεν θα είναι καθόλου ρουτίνα. Αφού έρχεται σε επαφή με έναν μυστηριώδη ξένο, εξαναγκάζεται να αποκαλύψει την ταυτότητα ενός κρυμμένου επιβάτη στο τρένο, πριν την τελευταία στάση. Καθώς προσπαθεί να λύσει όλο αυτό τον γρίφο ενάντια στον χρόνο, συνειδητοποιεί ότι ένα δολοφονικό σχέδιο έχει ξεδιπλωθεί και άθελα του βρίσκεται εν μέσω μιας εγκληματικής συνομωσίας.

Spoiler:

Format : AVI
Format/Info : Audio Video Interleave
File size : 1.44 GiB
Duration : 1 h 44 min
Overall bit rate : 1 960 kb/s
Writing application : VirtualDubMod 1.5.10.2 (build 2542/release)
Writing library : VirtualDubMod build 2542/release

Video
ID : 0
Format : MPEG-4 Visual
Format profile : Advanced Simple@L5
Format settings : BVOP1
Format settings, BVOP : 1
Format settings, QPel : No
Format settings, GMC : No warppoints
Format settings, Matrix : Default (H.263)
Muxing mode : Packed bitstream
Codec ID : XVID
Codec ID/Hint : XviD
Duration : 1 h 44 min
Bit rate : 1 504 kb/s
Width : 720 pixels
Height : 302 pixels
Display aspect ratio : 2.40:1
Frame rate : 23.976 (24000/1001) FPS
Color space : YUV
Chroma subsampling : 4:2:0
Bit depth : 8 bits
Scan type : Progressive
Compression mode : Lossy
Bits/(Pixel*Frame) : 0.288
Stream size : 1.10 GiB (77%)
Writing library : XviD 64

Audio
ID : 1
Format : AC-3
Format/Info : Audio Coding 3
Codec ID : 2000
Duration : 1 h 44 min
Bit rate mode : Constant
Bit rate : 448 kb/s
Channel(s) : 6 channels
Channel positions : Front: L C R, Side: L R, LFE
Sampling rate : 48.0 kHz
Frame rate : 31.250 FPS (1536 SPF)
Bit depth : 16 bits
Compression mode : Lossy
Stream size : 336 MiB (23%)
Alignment : Split accross interleaves
Interleave, duration : 64 ms (1.53 video frames)
Interleave, preload duration : 500 ms
Service kind : Complete Main


ΑΝ ΣΑΣ ΑΡΕΣΕΙ Η ΔΟΥΛΕΙΑ ΜΟΥ ΚΑΙ ΘΕΛΕΤΕ ΝΑ ΜΕ ΣΤΗΡΙΞΕΤΕ,
ΚΑΝΤΕ ΕΝΑ ΛΟΓΑΡΙΑΣΜΟ ΓΙΑ EASYBYTEZ & UPLOADED
ΚΑΙ ΚΑΤΕΒΑΣΤΕ ΣΑΝ PREMIUM ΑΠΟ 20 ΔΙΑΦΟΡΕΤΙΚΟΥΣ HOST.

EasyBytez Premium Accounts

Για Uploaded απο Εδώ. http://ul.to/ref/3276399


Links Easybytez & Uploaded

Spoiler:

https://paste2.org/bOHfPHLH

https://pastebin.com/pRdQ8qt8

Αγαπητοί φίλοι πολλές φορές ίσως σε κάποια λίνκ σας βγάζει «Server error»
η προβληματικός πάροχος η σφάλμα plugin έχει λήξει.
Αυτό δεν σημαίνει απαραίτητα ότι τα λίνκ είναι νεκρά. Δοκιμάστε το εξής.
Πάρ΄τε τα λίνκ ή το μονό λίνκ και κατεβάστε το με Browser….Δεξί κλίκ στο λίνκ και άνοιγμα σε νέο παράθυρο…
Θα σας ανοίξει μία καρτελίτσα και εσείς θα πατήσετε αποθήκευση, όχι άνοιγμα…
Αυτόματά το λίνκ θα κατέβει και θα αποθηκευτεί στο φάκελο που εσείς έχετε επιλέξει.

One Response to THE COMMUTER / Ο ΕΠΙΒAΤΗΣ (2018) BRRip XviD AC3-XVID {ΕΝΣΩΜ.ΥΠΟΤ}

Αφήστε μια απάντηση

Chat - Μόνο Εγγεγραμμένοι Χρήστες
You must be signed in to post a comment
Mr.Planet
(Πέμπτη, Απρ 19. 2018 03:51 ΜΜ)
μη χασει κανεις την ταινια RED SPARROW (2018) μακαρι να εβγαιναν τετειες ταινιες πιο συχνα!
Mr.Planet
(Τρίτη, Απρ 17. 2018 11:15 ΜΜ)
kost36 τωρα ειναι οκ, σε ευχαριστω.
kost36
(Τρίτη, Απρ 17. 2018 09:55 ΜΜ)
στο easybytez υπάρχουν μόνον τα parts 3,4 & 5 ενώ στο upload τα 1, 2 &3
ευχαριστώ
Mr.Planet
(Τρίτη, Απρ 17. 2018 09:29 ΠΜ)
καλημερα ntari22 σε ευχαριστω θα τοκοιταξω.
Mr.Planet
(Τρίτη, Απρ 17. 2018 09:28 ΠΜ)
Kαλημερα kost36. σαν τι μπερδεμα?

1 · 2 · 3 · 4 · 5