Kατηγορίες

I KILL GIANTS (2017) BRRip XviD AC3-XVID {ΕΝΣΩΜ.ΥΠΟΤ}

ΣΚΗΝΟΘΕΣΙΑ : Anders Walter
ΣΕΝΑΡΙΟ : Joe Kelly
ΗΘΟΠΟΙΟΙ : Madison Wolfe, Zoe Saldana, Imogen Poots
ΕΙΔΟΣ : Drama, Fantasy, Thriller
ΠΡΕΜΙΕΡΑ : 23 March 2018 (USA)
ΜΕΤΑΦΡΑΣΗ : oberOn
iMDB: https://www.imdb.com/title/tt4547194/

Υπόθεση

Κεντρική ηρωίδα είναι η Barbara, ένα κορίτσι λίγο διαφορετικό από τα άλλα, εσωστρεφής, αστεία αλλά με το δικό της ιδιαίτερο τρόπο, εξ ου και μοναχική. Λατρεύει τον κόσμο του Dungeons & Dragons, όμως αυτή η αγάπη της έχει αρχίσει να ξεφεύγει, με το κορίτσι να έχει αρχίσει να μπερδεύει τη πραγματικότητα με το φανταστικό. Είναι σίγουρη ότι Γίγαντες πρόκειται να επιτεθούν, και με τη βοήθεια των Νεράιδων ετοιμάζει την άμυνά της..

Spoiler:

Format : AVI
Format/Info : Audio Video Interleave
File size : 1.28 GiB
Duration : 1 h 46 min
Overall bit rate : 1 721 kb/s
Writing application : VirtualDubMod 1.5.10.2 (build 2542/release)
Writing library : VirtualDubMod build 2542/release

Video
ID : 0
Format : MPEG-4 Visual
Format profile : Advanced [email protected]
Format settings : BVOP1
Format settings, BVOP : 1
Format settings, QPel : No
Format settings, GMC : No warppoints
Format settings, Matrix : Default (H.263)
Muxing mode : Packed bitstream
Codec ID : XVID
Codec ID/Hint : XviD
Duration : 1 h 46 min
Bit rate : 1 266 kb/s
Width : 720 pixels
Height : 302 pixels
Display aspect ratio : 2.40:1
Frame rate : 23.976 (24000/1001) FPS
Color space : YUV
Chroma subsampling : 4:2:0
Bit depth : 8 bits
Scan type : Progressive
Compression mode : Lossy
Bits/(Pixel*Frame) : 0.243
Stream size : 963 MiB (74%)
Writing library : XviD 64

Audio
ID : 1
Format : AC-3
Format/Info : Audio Coding 3
Codec ID : 2000
Duration : 1 h 46 min
Bit rate mode : Constant
Bit rate : 448 kb/s
Channel(s) : 6 channels
Channel positions : Front: L C R, Side: L R, LFE
Sampling rate : 48.0 kHz
Frame rate : 31.250 FPS (1536 SPF)
Bit depth : 16 bits
Compression mode : Lossy
Stream size : 341 MiB (26%)
Alignment : Split accross interleaves
Interleave, duration : 64 ms (1.53 video frames)
Interleave, preload duratio : 500 ms
Service kind : Complete Main


ΑΝ ΣΑΣ ΑΡΕΣΕΙ Η ΔΟΥΛΕΙΑ ΜΟΥ ΚΑΙ ΘΕΛΕΤΕ ΝΑ ΜΕ ΣΤΗΡΙΞΕΤΕ,
ΚΑΝΤΕ ΕΝΑ ΛΟΓΑΡΙΑΣΜΟ ΓΙΑ EASYBYTEZ & UPLOADED
ΚΑΙ ΚΑΤΕΒΑΣΤΕ ΣΑΝ PREMIUM ΑΠΟ 20 ΔΙΑΦΟΡΕΤΙΚΟΥΣ HOST.

EasyBytez Premium Accounts

Για Uploaded απο Εδώ. http://ul.to/ref/3276399


Links Easybytez & Uploaded

Spoiler:

https://paste2.org/Hc3y6nst

 

Αγαπητοί φίλοι πολλές φορές ίσως σε κάποια λίνκ σας βγάζει «Server error»
η προβληματικός πάροχος η σφάλμα plugin έχει λήξει.
Αυτό δεν σημαίνει απαραίτητα ότι τα λίνκ είναι νεκρά. Δοκιμάστε το εξής.
Πάρ΄τε τα λίνκ ή το μονό λίνκ και κατεβάστε το με Browser….Δεξί κλίκ στο λίνκ και άνοιγμα σε νέο παράθυρο…
Θα σας ανοίξει μία καρτελίτσα και εσείς θα πατήσετε αποθήκευση, όχι άνοιγμα…
Αυτόματά το λίνκ θα κατέβει και θα αποθηκευτεί στο φάκελο που εσείς έχετε επιλέξει.

Αφήστε μια απάντηση

Chat - Μόνο Εγγεγραμμένοι Χρήστες
You must be signed in to post a comment
takisbol
(Παρασκευή, Μαΐ 18. 2018 05:52 ΜΜ)
εστω και καθυστερημένα, ευχαριστώ πολύ Mr. Planet
Mr.Planet
(Πέμπτη, Μαΐ 17. 2018 03:33 ΜΜ)
takisbol.
Aνεβηκαν νεα λινκς.
takisbol
(Τρίτη, Μαΐ 15. 2018 09:20 ΜΜ)
COLONY (2016-2018) SEASONS 1-3 {ενσωμ.υποτ} Episode 302 added
τα λινκς δεν υπάρχουν
stamilia
(Δευτέρα, Μαΐ 14. 2018 07:29 ΜΜ)
ευχαριστω πολυ!!!!
Mr.Planet
(Δευτέρα, Μαΐ 14. 2018 02:06 ΜΜ)
stamilia
ανεβηκαν νεα λινκς.

1 · 2 · 3 · 4 · 5